Jump to content


Photo

3 Moonu (2011) Download Latest Tamil Mp3 Songs [ACDrip - CBR][320Kbps]


This topic has been archived. This means that you cannot reply to this topic.
10 replies to this topic

#1 D R A G O N Z

D R A G O N Z

    : : : U Y I R V A N I A N : : :

  • Super Moderators
  • 1,470 posts

Posted 23 December 2011 - 05:16 PM

---------------------------------------------------------------------------------------------------------------
3 Moonu (2011)

Download Latest Tamil Mp3 Songs [ACDrip][320Kbps]
---------------------------------------------------------------------------------------------------------------
Posted Image
Posted Image

Click Here To Donate Uyirvani !!!

-------------------------------------------------------------------------------------------------------


Album - 3
Cast - Dhanush, Shruthi Hassan
Year - 2011
Music Director - Anirudh Ravichander
Label - Sony Music
Genre - Soundtrack - Tamil
Source - CD
Encoding Bitrate - 320 KBPS VBR (~)
Encoder Used - LAME (3.98.2)
Ripper - CaTia @ DN
Quality - Extreme / Joint Stereo / 44100 hz


---------------------------------------------------------------------------------------------------------------

MOVIE TRACK LIST:
' height='24' width='300' id='player1'>' />
01 - Idhazhin Oram - Ajesh Ashok,Aniruth

http://www.mdj.com/player/embed.swf' height='24' width='300' id='player1'>http://www.mdj.com/player/embed.swf' />
02 - Kannazhaga - Dhanush,Shruthi Hassan

http://www.mdj.com/player/embed.swf' height='24' width='300' id='player1'>http://www.mdj.com/player/embed.swf' />
03 - Come on Girls - Aniruth,Nadisha Thomas,Maalavika Manoj

http://www.mdj.com/player/embed.swf' height='24' width='300' id='player1'>http://www.mdj.com/player/embed.swf' />
04 - Nee Partha - Vijay Yesudas,Swetha Mohan

http://www.mdj.com/player/embed.swf' height='24' width='300' id='player1'>http://www.mdj.com/player/embed.swf' />
05 - A life Full of love - Theme Music

http://www.mdj.com/player/embed.swf' height='24' width='300' id='player1'>http://www.mdj.com/player/embed.swf' />
06 - Why this kolaveri di - Dhanush

http://www.mdj.com/player/embed.swf' height='24' width='300' id='player1'>http://www.mdj.com/player/embed.swf' />
07 - The Rhythem of love - Naveen Iyer

http://www.mdj.com/player/embed.swf' height='24' width='300' id='player1'>http://www.mdj.com/player/embed.swf' />
08 - Poo Nee Poo - Mohit Chauhan,Aniruth

http://www.mdj.com/player/embed.swf' height='24' width='300' id='player1'>http://www.mdj.com/player/embed.swf' />
09 - Theme of 3 - Mandolin Seenu & Others

http://www.mdj.com/player/embed.swf' height='24' width='300' id='player1'>http://www.mdj.com/player/embed.swf' />
10 - Poo Nee Poo - Sathya Prakash,Harish Swaminathan

Posted Image

Fast Download Links!!
http://www.mdj.com/q114utsriooo/A_Life_Full_Of_Love_Theme_Music.mp3.htmlhttp://www.mdj.com/88bmxt6jbul1/Come_On_Girls_Celebration_Of_Love.mp3.htmlhttp://www.mdj.com/r1c5egbrlbi4/Idhazhin_Oram_The_Innocence_Of_Love.mp3.htmlhttp://www.mdj.com/jllimkb7rkfo/Kannazhaga_The_Kiss_Of_Love.mp3.htmlhttp://www.mdj.com/jkbueo9t3vru/Nee_Paartha_Vizhigal_The_Touch_Of_Love.mp3.htmlhttp://www.mdj.com/4dvfjxf7ug08/Po_Nee_Po_Remix_The_Scream_Of_Love.mp3.htmlhttp://www.mdj.com/ny8izj0xxmgq/Po_Nee_Po_The_Pain_Of_Love.mp3.htmlhttp://www.mdj.com/5bo4gqoti66m/Theme_Of_3.mp3.htmlhttp://www.mdj.com/bu4d7l90n1qd/The_Rhythm_Of_Love_Theme_Music.mp3.htmlhttp://www.mdj.com/65m0fmzwh3qe/Why_This_Kolaveri.mp3.html



"1" One Click Download
http://www.enterupload.com/5ymuyw7cuv5p/3_-_CBR_-_320kbps_-_www.uyirvani.com.rar.html

http://www.fileserve.com/file/MdMCwVr

http://www.filesonic.com/file/zQJ7ikK

MEADIFIRE - http://zpag.es/95Bz

http://www.megaupload.com/?d=VCOU5VUK

http://cramit.in/7qvwbnebf3bh



---------------------------------------------------------------------------------------------------------------
3 Moonu (2011)

Download Latest Tamil Mp3 Songs [ACDrip][120Kbps]
---------------------------------------------------------------------------------------------------------------


Audio
Format : MPEG Audio
Format version : Version 1
Format profile : Layer 3
Mode : Joint stereo
Mode extension : MS Stereo
Duration : 5mn 2s
Bit rate mode : Variable
Bit rate : 136 Kbps
Minimum bit rate : 32.0 Kbps
Channel(s) : 2 channels
Sampling rate : 44.1 KHz
Compression mode : Lossy
Stream size : 4.89 MiB (100%)


http://cramit.in/1iw48dnrekho

http://www.enterupload.com/55bt940ift9l/3_-_CBR_-_128kbps_-_www.uyirvani.com.rar.html

http://www.fileserve.com/file/z67WAXK

http://www.filesonic.com/file/DXGvyZJ

MEDIAFIRE - http://adfoc.us/89992548005

http://www.megaupload.com/?d=C188DWKS




---------------------------------------------------------------------------------------------------------------
3 Moonu (2011)

Download Latest Tamil Mp3 Songs [Flac][1141Kbps][2Channel]
---------------------------------------------------------------------------------------------------------------

Audio
Format : FLAC
Format/Info : Free Lossless Audio Codec
Duration : 5mn 2s
Bit rate mode : Variable
Bit rate : 975 Kbps
Channel(s) : 2 channels
Sampling rate : 44.1 KHz
Bit depth : 16 bits
Stream size : 35.1 MiB (100%)
Writing library : libFLAC 1.2.1 (UTC 2007-09-17)


http://www.fileserve.com/file/EjjMCnR

http://www.enterupload.com/no8xc4if7u1e/3_-_FLAC_-_www.uyirvani.com.rar.html

http://www.filesonic.com/file/ZNjAiSl

http://www.megaupload.com/?d=89Z1BGTR

http://cramit.in/x6gbczm6vx59


---------------------------------------------------------------------------------------------------------------
3 Moonu (2011)

Download Latest Tamil Mp3 Songs [Wave][4234Kbps][6Channel]
---------------------------------------------------------------------------------------------------------------


Audio
ID : 0
Format : PCM
Format settings, Endianness : Little
Codec ID : 1
Codec ID/Hint : Microsoft
Duration : 5mn 9s
Bit rate : 4 234 Kbps
Channel(s) : 6 channels
Sampling rate : 44.1 KHz
Bit depth : 16 bits
Stream size : 156 MiB (100%)


http://www.fileserve.com/file/562jUTw

http://cramit.in/nue3y4ihskz2

CLICK HERE FOR FREE PREMIUM ACCOUNT @UYIRVANI[b]
FILESONIC,WUPLOAD,MEGASHARE,UPLOADSTATION,HOTFILE AND MORE

Note : This is CBR Rip..ACD Rip in 1 Hour..Enjoy !
-------------------------------------------------------------------------------------------------------------




Im Back :D


Posted Image

Posted Image


toolbar powered by Conduit

#2 cmhoneyf

cmhoneyf

    IMMORTALS

  • VIP
  • 7,099 posts

Posted 23 December 2011 - 05:32 PM

Tnxna a lot, good release :)

Laughter is the best medicine,but if you laugh for no reason you need medicine .  


#3 Asham

Asham

    Senior Member

  • Uyirvanian
  • 876 posts

Posted 23 December 2011 - 05:34 PM

sooooooper
Posted Image

#4 coolboss910

coolboss910

    Uyirvanian

  • Uyirvanian
  • 61 posts

Posted 23 December 2011 - 05:38 PM

awesome buddy.. thanks for quick release :dance2: :bigemo_harabe_net-193: :bigemo_harabe_net-179: :bigemo_harabe_net-159: :clapping: :dance3:

#5 calvinda

calvinda

    Just Born

  • Members
  • 19 posts

Posted 23 December 2011 - 05:56 PM

Thanks bro

#6 Ffckathir

Ffckathir

    Senior Member

  • Uyirvanian
  • 558 posts

Posted 23 December 2011 - 06:03 PM

Thank you for sharing dragonz bro..
Posted Image

FFCK@tHiR

#7 nandukanna

nandukanna

    Advanced Member

  • Uyirvanian
  • 1,658 posts

Posted 24 December 2011 - 04:23 AM

:bigemo_harabe_net-159: :bigemo_harabe_net-159: Thankyou :bigemo_harabe_net-159: :bigemo_harabe_net-159:

#8 dmitri_burn

dmitri_burn

    Valuable Member

  • Uyirvanian
  • 230 posts

Posted 24 December 2011 - 05:21 AM

thx

#9 rowan joseph

rowan joseph

    Uyirvanian

  • Uyirvanian
  • 41 posts

Posted 01 January 2012 - 04:56 AM

Thank u ..........

#10 kishore777

kishore777

    Uyirvanian

  • Uyirvanian
  • 104 posts

Posted 16 January 2012 - 12:10 PM

thanks for the share....

#11 Arjit

Arjit

    Valuable Member

  • Uyirvanian
  • 160 posts

Posted 25 February 2012 - 02:35 AM

thx bro
Posted Image



Similar Topics Collapse



Support Uyirvani By Downloading Toolbar -
toolbar powered by Conduit